Emby server will not play files

    • OMV 2.x
    • Emby server will not play files

      hello i've been working on getting my emby server up and running but when i try and actually play something i just get an infinite loading wheel
      i have reinstalled multiple times and still nothing

      plex works fine.... ive been reading the threads and i cant find anything that works

      at this point im desperate || i would really like to make this work
      will attach log

      Source Code

      1. http://192.168.2.25:8096/emby/videos/28c34f5f11aa71295889486ec47a23b6/live.m3u8?DeviceId=e0168a19a57241841ad041525b4463860474beb3&MediaSourceId=28c34f5f11aa71295889486ec47a23b6&VideoCodec=h264&AudioCodec=aac,mp3&VideoBitrate=154959515&AudioBitrate=192000&Level=41&Profile=high&PlaySessionId=1a2830f3ebc542bb8d70a38ffa79eb5c&api_key=6af1228830764a869b5770a521e32f1f&CopyTimestamps=false&TranscodingMaxAudioChannels=2&EnableSubtitlesInManifest=false&Tag=528e4beb6555efd423659417a3241661&EnableSplittingOnNonKeyFrames=false
      2. {"Protocol":"File","Id":"28c34f5f11aa71295889486ec47a23b6","Path":"/media/4dd8a2b4-38c4-427c-a83f-c61b3f76ecf8/Movies/You Only Live Twice (1967) [1080p] [YTS.AG]/You.Only.Live.Twice.1967.1080p.BluRay.x264-[YTS.AG].mp4","Type":"Default","Container":"mp4","Name":"","ETag":"528e4beb6555efd423659417a3241661","ReadAtNativeFramerate":false,"SupportsTranscoding":true,"SupportsDirectStream":true,"SupportsDirectPlay":true,"IsInfiniteStream":false,"RequiresOpening":false,"RequiresClosing":false,"SupportsProbing":true,"VideoType":"VideoFile","MediaStreams":[],"PlayableStreamFileNames":[],"Formats":[],"RequiredHttpHeaders":{}}
      3. ffmpeg -fflags +genpts -i file:"/media/4dd8a2b4-38c4-427c-a83f-c61b3f76ecf8/Movies/You Only Live Twice (1967) [1080p] [YTS.AG]/You.Only.Live.Twice.1967.1080p.BluRay.x264-[YTS.AG].mp4" -map_metadata -1 -threads 0 -sn -codec:v:0 libx264 -pix_fmt yuv420p -preset superfast -crf 23 -tune zerolatency -b:v 154959515 -maxrate 154959515 -bufsize 309919030 -vsync -1 -profile:v high -level 4.1 -force_key_frames "expr:gte(t,n_forced*3)" -flags -global_header -sc_threshold 0 -codec:a:0 aac -strict experimental -ac 2 -ab 192000 -af "adelay=1,aresample=async=1" -hls_time 3 -start_number 0 -hls_list_size 0 -hls_base_url "hls/a2795c85de503080ee095d1cf9ee4f26/" -y "/media/4dd8a2b4-38c4-427c-a83f-c61b3f76ecf8/emby/transcoding-temp/a2795c85de503080ee095d1cf9ee4f26.m3u8"
      4. ffmpeg version 0.8.18-6:0.8.18-0+deb7u1, Copyright (c) 2000-2014 the Libav developers
      5. built on Oct 4 2016 19:16:32 with gcc 4.7.2
      6. The ffmpeg program is only provided for script compatibility and will be removed
      7. in a future release. It has been deprecated in the Libav project to allow for
      8. incompatible command line syntax improvements in its replacement called avconv
      9. (see Changelog for details). Please use avconv instead.
      10. Input #0, mov,mp4,m4a,3gp,3g2,mj2, from 'file:/media/4dd8a2b4-38c4-427c-a83f-c61b3f76ecf8/Movies/You Only Live Twice (1967) [1080p] [YTS.AG]/You.Only.Live.Twice.1967.1080p.BluRay.x264-[YTS.AG].mp4':
      11. Metadata:
      12. major_brand : isom
      13. minor_version : 512
      14. compatible_brands: isomiso2avc1mp41
      15. encoder : Lavf57.22.100
      16. Duration: 01:56:58.30, start: 0.042667, bitrate: 2159 kb/s
      17. Stream #0.0(und): Video: h264 (High), yuv420p, 1904x816 [PAR 1:1 DAR 7:3], 2050 kb/s, 23.98 fps, 23.98 tbr, 24k tbn, 47.95 tbc
      18. Stream #0.1(und): Audio: aac, 48000 Hz, stereo, s16, 102 kb/s
      19. Unrecognized option 'codec:v:0'
      20. Failed to set value 'libx264' for option 'codec:v:0'
      Display All
      any help would be appreciated